Онлайн радио #radiobells_script_hash
Вторник, 23-04-2024, 8:21:36
Фильмы,игры,мультфильмы.Качай бесплатно на КИНОМУЛЬТ.РФ !!! ГлавнаяРегистрацияВход
Приветствую Вас Гость | RSS
КТО СКАЧАЛ, КЛИКНИ 1 РАЗ НА РЕКЛАМУ ВЫШЕ, ЭТО ПОМОЖЕТ РАЗВИТИЮ САЙТА И МОТИВИРУЕТ ВЫКЛАДЫВАТЬ ДЛЯ ВАС ВСЁ САМОЕ НОВОЕ И БЕСПЛАТНО. С УВАЖЕНИЕМ, АДМИНИСТРАТОР САЙТА !!!
Меню сайта
  
     
  
Категории раздела
ИГРЫ [322]
ФИЛЬМЫ [442]
СЕРИАЛЫ [0]
Мультфильмы [98]
Документальное [25]
Программы [8]
МУЗЫКА [2]
Категории Каталога файлов [546]
erid:Kra249sGi
 Каталог файлов 
Главная » Файлы » Мультфильмы

торент Храбрая сердцем / Brave
[ СКАЧАТЬ ТОРЕНТ (14.4 Kb) ] 10-01-2013, 5:51:07
Общее 
Полное имя : E:\Фильмы программы и прочее\Hrabraja_Serdsem_2012_[tfile.ru].avi 
Формат : AVI 
Формат/Информация : Audio Video Interleave 
Размер файла : 1,36 Гбайт 
Продолжительность : 1 ч. 33 м. 
Общий поток : 2085 Кбит/сек 
Программа кодирования : VirtualDubMod 1.5.10.3 | www.virtualdub-fr.org || (build 2550/release) 
Библиотека кодирования : VirtualDubMod build 2550/release 

Видео 
Идентификатор : 0 
Формат : MPEG-4 Visual 
Профиль формата : Advanced Simple@L5 
Параметр BVOP формата : 2 
Параметр QPel формата : Нет 
Параметр GMC формата : Без точки перехода 
Параметр матрицы формата : Выборочная 
Режим смешивания : Сжатый битовый поток 
Идентификатор кодека : XVID 
Идентификатор кодека/Подсказка : XviD 
Продолжительность : 1 ч. 33 м. 
Битрейт : 1691 Кбит/сек 
Ширина : 720 пикселей 
Высота : 304 пикселя 
Соотношение сторон : 2,35:1 
Частота кадров : 23,976 кадра/сек 
Цветовое пространство : YUV 
Субдискретизация насыщенности : 4:2:0 
Битовая глубина : 8 бит 
Тип развёртки : Прогрессивная 
Метод сжатия : С потерями 
Бит/(Пиксели*Кадры) : 0.322 
Размер потока : 1,11 Гбайт (81%) 
Библиотека кодирования : XviD 58 

Аудио 
Идентификатор : 1 
Формат : AC-3 
Формат/Информация : Audio Coding 3 
Расширение режима : CM (complete main) 
Параметр Endianness формата : Big 
Идентификатор кодека : 2000 
Продолжительность : 1 ч. 33 м. 
Вид битрейта : Постоянный 
Битрейт : 384 Кбит/сек 
Каналы : 6 каналов 
Расположение каналов : Front: L C R, Side: L R, LFE 
Частота : 48,0 КГц 
Битовая глубина : 16 бит 
Метод сжатия : С потерями 
Размер потока : 257 Мбайт (18%) 
Выравнивание : Разделение по промежуткам 
Продолжительность промежутка : 42 мс. (1,00 видеокадр) 
Время предзагрузки промежутка : 500 мс. 

 
 
 
 
 
 
 
Категория: Мультфильмы | Добавил: Administrator | Теги: торент Храбрая сердцем, Brave
Посмотрели: 760 | Загрузили: 21 | Оценили: 0.0/0
Всего Наболтали: 0
avatar
Ваш IP
3.234.244.181
Здесь могла быть ваша реклама
Поиск
Мини-чат
Счетчик посещений
Кто Сейчас на сайте !!!
Онлайн всего: 1
Гостей: 1
Пользователей: 0
КИНОМУЛЬТ.РФ© 2024
Используются технологии uCoz